Bug #842

Possible bug with AVC codec [email protected] (on PS3).

Added by Valentin Meriel about 9 years ago. Updated about 9 years ago.

Status:FixedStart date:01/19/2012
Priority:NormalDue date:
Assignee:-% Done:

100%

Category:Video playback
Target version:3.4
Found in version:3.3.395 Platform:PS3

Description

Hello,

I have a problem with files .mp4 and .mkv containing AVC video encoded with the profile .

There is simply no image to display just a black screen.

Sorry for me bad english i'm french.

For information is the same file twice just a mp4 and the second mkv converted.

MediaInfo of my files:

for mp4 :

General
Format : MPEG-4
Format profile : Base Media / Version 2
Codec ID : mp42
File size : 1.47 GiB
Duration : 1h 38mn
Overall bit rate : 2 136 Kbps
Encoded date : UTC 2011-05-25 12:03:40
Tagged date : UTC 2011-05-25 12:03:40
Writing library : AVS

Video
ID : 1
Format : AVC
Format/Info : Advanced Video Codec
Format profile :
Format settings, CABAC : No
Format settings, ReFrames : 1 frame
Codec ID : avc1
Codec ID/Info : Advanced Video Coding
Duration : 1h 38mn
Bit rate : 2 006 Kbps
Width : 1 280 pixels
Height : 720 pixels
Display aspect ratio : 16:9
Frame rate mode : Constant
Frame rate : 23.976 fps
Color space : YUV
Chroma subsampling : 4:2:0
Bit depth : 8 bits
Scan type : Progressive
Bits/(Pixel*Frame) : 0.091
Stream size : 1.38 GiB (94%)
Language : English
Encoded date : UTC 2011-05-25 12:03:40
Tagged date : UTC 2011-05-25 12:03:40

Audio
ID : 2
Format : AAC
Format/Info : Advanced Audio Codec
Format profile : LC
Codec ID : 40
Duration : 1h 38mn
Bit rate mode : Constant
Bit rate : 128 Kbps
Channel(s) : 2 channels
Channel positions : Front: L R
Sampling rate : 48.0 KHz
Compression mode : Lossy
Stream size : 88.6 MiB (6%)
Language : English
Encoded date : UTC 2011-05-25 12:03:40
Tagged date : UTC 2011-05-25 12:03:40

for the .mkv :

General
Format : Matroska
Format version : Version 2
File size : 1.47 GiB
Duration : 1h 38mn
Overall bit rate : 2 134 Kbps
Encoded date : UTC 2012-01-19 17:31:38
Writing application : mkvmerge v5.2.1 ('A Far Off Place') built on Jan 2 2012 23:21:10
Writing library : libebml v1.2.3 + libmatroska v1.3.0

Video
ID : 1
Format : AVC
Format/Info : Advanced Video Codec
Format profile :
Format settings, CABAC : No
Format settings, ReFrames : 1 frame
Muxing mode : Header stripping
Codec ID : V_MPEG4/ISO/AVC
Duration : 1h 38mn
Width : 1 280 pixels
Height : 720 pixels
Display aspect ratio : 16:9
Frame rate : 23.976 fps
Color space : YUV
Chroma subsampling : 4:2:0
Bit depth : 8 bits
Scan type : Progressive

Audio
ID : 2
Format : AAC
Format/Info : Advanced Audio Codec
Format profile : LC
Codec ID : A_AAC
Duration : 1h 38mn
Channel(s) : 2 channels
Channel positions : Front: L R
Sampling rate : 48.0 KHz
Compression mode : Lossy

One_Piece_001_A_005.mkv - mkv not working (10 MB) Valentin Meriel, 01/20/2012 10:23 PM

One_Piece_001_A_005.mp4 - mp4 not working too (10 MB) Valentin Meriel, 01/20/2012 10:23 PM

Associated revisions

Revision 384a7042
Added by Andreas Smas about 9 years ago

ps3: Don't play h264 constrained baseline using the cell accelerated decoder (it does not work)

Fixes #842

Change included in version 3.3.396

History

#1 Updated by Andreas Smas about 9 years ago

  • Status changed from New to Need feedback

Attach a sample file

#2 Updated by Andreas Smas about 9 years ago

Maybe #662 has one

#3 Updated by Valentin Meriel about 9 years ago

I will post it this weekend.
For now, i can't post because my connection is too slow to upload it.

#5 Updated by Andreas Smas about 9 years ago

  • Category set to Video playback
  • Target version set to 3.4

#6 Updated by Andreas Smas about 9 years ago

  • Status changed from Need feedback to Fixed
  • % Done changed from 0 to 100

Also available in: Atom PDF