Bug #2140

CPU slow on some media that plays fine in XMB (PS3)

Added by Leonid Protasov almost 7 years ago. Updated almost 7 years ago.

Status:FixedStart date:05/08/2014
Priority:HighDue date:
Assignee:Andreas Smas% Done:

100%

Category:Video playback
Target version:4.6
Found in version:4.5.328 Platform:PS3

Description

[email protected]_1RefFrame.mp4 (11.4 MB) Leonid Protasov, 05/08/2014 10:38 AM

[email protected]_1RefFrame.mp4 (35.7 MB) Leonid Protasov, 05/09/2014 06:45 AM

Associated revisions

Revision d46f8528
Added by Andreas Smas almost 7 years ago

ps3: Seems we can play constrained baseline after all

Fixes #2140

Change included in version 4.5.403

History

#1 Updated by Leonid Protasov almost 7 years ago

General
Complete name                            : C:\1\movies\[email protected]_1RefFrame.mp4
Format                                   : MPEG-4
Format profile                           : Base Media
Codec ID                                 : isom
File size                                : 35.7 MiB
Duration                                 : 16s 217ms
Overall bit rate mode                    : Variable
Overall bit rate                         : 18.4 Mbps
Encoded date                             : UTC 2014-05-08 20:22:58
Tagged date                              : UTC 2014-05-08 20:22:58
Writing application                      : Lavf51.12.1

Video
ID                                       : 1
Format                                   : AVC
Format/Info                              : Advanced Video Codec
Format profile                           : [email protected]
Format settings, CABAC                   : No
Format settings, ReFrames                : 1 frame
Format settings, GOP                     : M=1, N=12
Codec ID                                 : avc1
Codec ID/Info                            : Advanced Video Coding
Duration                                 : 16s 217ms
Bit rate                                 : 18.3 Mbps
Width                                    : 1 920 pixels
Height                                   : 1 080 pixels
Display aspect ratio                     : 16:9
Frame rate mode                          : Constant
Frame rate                               : 29.970 fps
Color space                              : YUV
Chroma subsampling                       : 4:2:0
Bit depth                                : 8 bits
Scan type                                : Progressive
Bits/(Pixel*Frame)                       : 0.295
Stream size                              : 35.4 MiB (99%)
Encoded date                             : UTC 2014-05-08 20:22:58
Tagged date                              : UTC 2014-05-08 20:22:58

Audio
ID                                       : 2
Format                                   : AAC
Format/Info                              : Advanced Audio Codec
Format profile                           : LC
Codec ID                                 : 40
Duration                                 : 16s 162ms
Bit rate mode                            : Variable
Bit rate                                 : 128 Kbps
Channel(s)                               : 2 channels
Channel positions                        : Front: L R
Sampling rate                            : 44.1 KHz
Compression mode                         : Lossy
Stream size                              : 253 KiB (1%)
Encoded date                             : UTC 2014-05-08 20:22:58
Tagged date                              : UTC 2014-05-08 20:22:58

#2 Updated by Andreas Smas almost 7 years ago

  • Status changed from New to Fixed
  • % Done changed from 0 to 100

Also available in: Atom PDF