Bug #1004

Black Screen (only Sound)

Added by almir abrarov almost 9 years ago. Updated almost 9 years ago.

Status:RejectedStart date:05/21/2012
Priority:NormalDue date:
Assignee:Andreas Smas% Done:

0%

Category:Video playback
Target version:4.0
Found in version:3.99 Platform:PS3

Description

Video:
http://rutracker.org/forum/viewtopic.php?t=2268130
Info:
X:\TwonkyUpload\videos\MOVIES\Документальное\1080.mkv
General
Unique ID : 213237722447536259912228470432541293311 (0xA06C176C1D9D8B0F9381FAF71D6DBAFF)
Complete name : X:\TwonkyUpload\videos\MOVIES\Документальное\1080.mkv
Format : Matroska
Format version : Version 1
File size : 5.49 GiB
Duration : 1h 8mn
Overall bit rate : 11.5 Mbps
Encoded date : UTC 2009-10-02 07:16:03
Writing application : mkvmerge v2.5.1 ('He Wasn't There') built on Feb 22 2009 18:19:47
Writing library : libebml v0.7.7 + libmatroska v0.8.1
Video #1
ID : 1
Format : AVC
Format/Info : Advanced Video Codec
Format profile :
Format settings, CABAC : Yes
Format settings, ReFrames : 10 frames
Codec ID : V_MPEG4/ISO/AVC
Duration : 1h 8mn
Bit rate : 10.2 Mbps
Width : 1 920 pixels
Height : 1 080 pixels
Display aspect ratio : 16:9
Frame rate : 24.000 fps
Color space : YUV
Chroma subsampling : 4:2:0
Bit depth : 8 bits
Scan type : Progressive
Bits/(Pixel*Frame) : 0.205
Stream size : 4.76 GiB (87%)
Writing library : x264 core 65 r999kMod cc51047
Encoding settings : cabac=1 / ref=10 / deblock=1:-2:-2 / analyse=0x3:0x133 / me=umh / subme=9 / psy_rd=0.8:0.2 / mixed_ref=1 / me_range=24 / chroma_me=1 / trellis=1 / 8x8dct=1 / cqm=0 / deadzone=21,11 / chroma_qp_offset=-3 / threads=2 / thread_queue=2 / nr=0 / decimate=1 / mbaff=0 / bframes=6 / b_pyramid=1 / b_adapt=1 / b_bias=0 / direct=1 / wpredb=1 / keyint=250 / keyint_min=25 / scenecut=40(pre) / rc=abr / bitrate=10200 / ratetol=1.0 / qcomp=0.60 / qpmin=10 / qpmax=51 / qpstep=4 / ip_ratio=1.40 / pb_ratio=1.30 / aq=1:1.00
Language : English
Default : Yes
Forced : No
Audio #2
ID : 2
Format : AC-3
Format/Info : Audio Coding 3
Mode extension : CM (complete main)
Codec ID : A_AC3
Duration : 1h 8mn
Bit rate mode : Constant
Bit rate : 640 Kbps
Channel(s) : 6 channels
Channel positions : Front: L C R, Side: L R, LFE
Sampling rate : 48.0 KHz
Bit depth : 16 bits
Compression mode : Lossy
Delay relative to video : 8s 912ms
Stream size : 314 MiB (6%)
Language : English
Default : Yes
Forced : No
Audio #3
ID : 3
Format : AC-3
Format/Info : Audio Coding 3
Mode extension : CM (complete main)
Codec ID : A_AC3
Duration : 1h 8mn
Bit rate mode : Constant
Bit rate : 640 Kbps
Channel(s) : 6 channels
Channel positions : Front: L C R, Side: L R, LFE
Sampling rate : 48.0 KHz
Bit depth : 16 bits
Compression mode : Lossy
Delay relative to video : 8s 912ms
Stream size : 314 MiB (6%)
Language : English
Default : No
Forced : No

History

#1 Updated by Andreas Smas almost 9 years ago

  • Status changed from New to Rejected

PS3 h264 decoder does not support 10 ref-frames

#2 Updated by Andreas Smas almost 9 years ago

  • Target version changed from 3.99 to 4.0

Also available in: Atom PDF